<?xml version="1.0" standalone="no"?>
<!DOCTYPE svg PUBLIC "-//W3C//DTD SVG 1.1//EN" "http://www.w3.org/Graphics/SVG/1.1/DTD/svg11.dtd" >
<svg>
<metadata>
Created by FontForge 20090622 at Mon Apr 18 12:52:35 2016
 By deploy user
Copyright (c) 2011 by Atipus. All rights reserved.
</metadata>
<defs>
<font id="Blanch-Caps" horiz-adv-x="833" >
  <font-face 
    font-family="Blanch Caps"
    font-weight="410"
    font-variant="small-caps"
    font-stretch="normal"
    units-per-em="1000"
    panose-1="2 11 5 4 0 0 0 2 0 4"
    ascent="700"
    descent="-300"
    x-height="494"
    cap-height="495"
    bbox="-46.2857 -129 512 701"
    underline-thickness="50"
    underline-position="-50"
    unicode-range="U+0020-U+20AC"
  />
<missing-glyph horiz-adv-x="0" 
 />
    <glyph glyph-name=".notdef" horiz-adv-x="0" 
 />
    <glyph glyph-name=".null" horiz-adv-x="0" 
 />
    <glyph glyph-name="nonmarkingreturn" horiz-adv-x="333" 
 />
    <glyph glyph-name="space" unicode=" " horiz-adv-x="144" 
 />
    <glyph glyph-name="exclam" unicode="!" horiz-adv-x="147" 
d="M77 34q16 0 16 -16v-66q0 -16 -16 -16h-32q-16 0 -16 16v66q0 16 16 16h32zM93 478v-365q0 -16 -16 -16h-32q-16 0 -16 16v365q0 16 16 16h32q16 0 16 -16z" />
    <glyph glyph-name="numbersign" unicode="#" horiz-adv-x="530" 
d="M203 311v-128h64v128h-64zM435 311h-104v-128h104q6 0 11 -4.5t5 -11.5v-32q0 -6 -5 -11t-11 -5h-104v-103q0 -7 -5 -11.5t-11 -4.5h-32q-16 0 -16 16v103h-64v-103q0 -16 -16 -16h-32q-6 0 -11 4.5t-5 11.5v103h-104q-6 0 -11 5t-5 11v32q0 7 5 11.5t11 4.5h104v128
h-104q-6 0 -11 4.5t-5 11.5v31q0 7 5 11.5t11 4.5h104v104q0 7 5 11.5t11 4.5h32q16 0 16 -16v-104h64v104q0 16 16 16h32q6 0 11 -4.5t5 -11.5v-104h104q6 0 11 -4.5t5 -10.5v-32q0 -7 -5 -11.5t-11 -4.5z" />
    <glyph glyph-name="dollar" unicode="$" horiz-adv-x="313" 
d="M211 332q-6 0 -11 4.5t-5 11.5v34q0 21 -15 36t-36 15t-36 -15t-15 -36q0 -13 2 -17l141 -185q17 -24 20 -32t3 -32q0 -39 -23.5 -69.5t-59.5 -41.5v-50q0 -16 -16 -16h-32q-16 0 -16 16v50q-36 11 -59.5 41.5t-23.5 69.5v34q0 16 16 16h32q6 0 11 -4.5t5 -11.5v-34
q0 -21 15 -36t36 -15t36 15t15 36q0 13 -2 17l-141 185q-17 23 -20 31.5t-3 32.5q0 39 23.5 69.5t59.5 41.5v50q0 16 16 16h32q16 0 16 -16v-50q36 -11 59.5 -41.5t23.5 -69.5v-34q0 -16 -16 -16h-32z" />
    <glyph glyph-name="percent" unicode="%" horiz-adv-x="566" 
d="M145 329q21 0 36 15t15 36t-15 36t-36 15t-36 -15t-16 -36q1 -21 16 -36t36 -15zM260 380q-1 -47 -34.5 -81t-80.5 -34q-48 0 -81.5 33.5t-34.5 81.5v0v1q1 47 34.5 80.5t81.5 33.5q47 0 80.5 -33.5t34.5 -80.5v-1v0zM362 317l-140 -186q-3 -3 -3 -16v-99q0 -6 -4.5 -11
t-11.5 -5h-32q-6 0 -11 5t-5 11v99q0 24 3 32t21 32l140 185q3 4 3 17v98q0 16 16 16h32q16 0 16 -16v-98q0 -25 -3 -33t-21 -31zM397 64q21 0 36 15t15 36t-15 36t-36 15t-36 -15t-15 -36t15 -36t36 -15zM512 116v-1v0q0 -47 -34 -81t-81 -34t-81 34t-34 81v0v1
q0 47 34 80.5t81 33.5t81 -33.5t34 -80.5z" />
    <glyph glyph-name="ampersand" unicode="&#x26;" horiz-adv-x="371" 
d="M311 330q7 0 11.5 -5t4.5 -11v-32q0 -16 -16 -16h-51v-250q0 -7 -5 -11.5t-11 -4.5h-100q-47 0 -81 34t-34 82v98q0 51 36 84q-36 33 -36 83q0 48 34 82t81 34h34q7 0 11.5 -5t4.5 -11v-33q0 -6 -4.5 -11t-11.5 -5h-34q-21 0 -36 -15t-15 -36t15 -36t36 -15h52v51
q0 16 16 16h32q6 0 11 -4.5t5 -11.5v-51h51zM196 64v202h-52q-21 0 -36 -15.5t-15 -36.5v-98q0 -22 15 -37t36 -15h52z" />
    <glyph glyph-name="quotesingle" unicode="'" horiz-adv-x="147" 
d="M77 559q16 0 16 -16v-195q0 -16 -16 -16h-32q-16 0 -16 16v195q0 16 16 16h32z" />
    <glyph glyph-name="parenleft" unicode="(" horiz-adv-x="214" 
d="M144 431q-21 0 -36 -15t-15 -37v-264q0 -22 15 -37t36 -15q16 0 16 -16v-31q0 -16 -16 -16q-47 0 -81 33.5t-34 81.5v264q0 48 34 81.5t81 33.5q16 0 16 -16v-32q0 -6 -4.5 -10.5t-11.5 -4.5z" />
    <glyph glyph-name="parenright" unicode=")" horiz-adv-x="213" 
d="M45 494q47 0 81 -33.5t34 -81.5v-264q0 -48 -34 -81.5t-81 -33.5q-16 0 -16 16v31q0 16 16 16q21 0 36 15t15 37v264q0 22 -15 37t-36 15q-7 0 -11.5 4.5t-4.5 10.5v32q0 16 16 16z" />
    <glyph glyph-name="plus" unicode="+" horiz-adv-x="278" 
d="M209 278q16 0 16 -16v-32q0 -16 -16 -16h-50v-50q0 -16 -16 -16h-32q-16 0 -16 16v50h-50q-16 0 -16 16v32q0 16 16 16h50v50q0 16 16 16h32q16 0 16 -16v-50h50z" />
    <glyph glyph-name="comma" unicode="," horiz-adv-x="147" 
d="M77 98q16 0 16 -16v-195q0 -16 -16 -16h-32q-16 0 -16 16v195q0 16 16 16h32z" />
    <glyph glyph-name="hyphen" unicode="-" horiz-adv-x="279" 
d="M209 278q7 0 11.5 -5t4.5 -11v-32q0 -16 -16 -16h-164q-16 0 -16 16v32q0 6 4.5 11t11.5 5h164z" />
    <glyph glyph-name="period" unicode="." horiz-adv-x="147" 
d="M77 98q16 0 16 -16v-66q0 -16 -16 -16h-32q-16 0 -16 16v66q0 16 16 16h32z" />
    <glyph glyph-name="slash" unicode="/" horiz-adv-x="314" 
d="M260 479v-98q0 -25 -3 -33t-21 -31l-140 -186q-3 -3 -3 -16v-99q0 -6 -4.5 -11t-11.5 -5h-32q-7 0 -11.5 5t-4.5 11v99q0 24 3 32t21 32l140 185q3 4 3 17v98q0 16 16 16h32q6 0 11 -4.5t5 -11.5z" />
    <glyph glyph-name="zero" unicode="0" horiz-adv-x="313" 
d="M195 116v147l-99 -132q-3 -3 -3 -15q0 -22 15 -37t36 -15t36 15t15 37zM193 364q2 4 2 16q0 21 -15 36t-36 15t-36 -15t-15 -36v-148zM259 381v-265q0 -48 -33.5 -82t-81.5 -34q-47 0 -81 34t-34 81v1v264q0 47 33.5 81t81.5 34q47 0 81 -33.5t34 -80.5z" />
    <glyph glyph-name="one" unicode="1" horiz-adv-x="215" 
d="M129 495q13 0 22.5 -9.5t9.5 -22.5v-447q0 -6 -5 -11t-11 -5h-32q-7 0 -11.5 5t-4.5 11v415h-52q-16 0 -16 16v32q0 16 16 16h84z" />
    <glyph glyph-name="two" unicode="2" horiz-adv-x="314" 
d="M244 64q16 0 16 -16v-32q0 -6 -4.5 -11t-11.5 -5h-199q-7 0 -11.5 5t-4.5 11v98q0 24 3 32t21 32l140 185q3 4 3 17q0 21 -15 36t-37 15q-21 0 -36 -15t-15 -36v-35q0 -6 -4.5 -11t-11.5 -5h-32q-7 0 -11.5 5t-4.5 11v35q0 47 34 81t81 34q48 0 82 -34t34 -81
q0 -25 -3 -33t-21 -31l-140 -186q-3 -3 -3 -16v-50h151z" />
    <glyph glyph-name="three" unicode="3" horiz-adv-x="314" 
d="M260 380v-48q0 -50 -36 -84q36 -34 36 -83v-49q0 -48 -34 -82t-82 -34q-47 0 -81 34t-34 82v34q0 16 16 16h32q16 0 16 -16v-34q0 -22 15 -37t36 -15q22 0 37 15t15 37v49q0 21 -15 36t-37 15q-16 0 -16 16v32q0 16 16 16q22 0 37 15t15 37v48q0 21 -15 36t-37 15
q-21 0 -36 -15t-15 -36v-35q0 -6 -4.5 -11t-11.5 -5h-32q-7 0 -11.5 5t-4.5 11v35q0 47 34 81t81 34q48 0 82 -34t34 -81z" />
    <glyph glyph-name="four" unicode="4" horiz-adv-x="381" 
d="M311 216q16 0 16 -16v-32q0 -16 -16 -16h-51v-136q0 -6 -4.5 -11t-11.5 -5h-32q-7 0 -11.5 5t-4.5 11v136h-151q-16 0 -16 16v48q0 21 3 29t21 32l140 185q3 4 3 17q0 16 16 16h32q16 0 16 -16q0 -24 -3 -32t-21 -32l-140 -185q-3 -4 -3 -14h103v51q0 16 16 16h32
q16 0 16 -16v-51h51z" />
    <glyph glyph-name="five" unicode="5" horiz-adv-x="314" 
d="M244 431h-151v-102h52q47 0 81 -33.5t34 -81.5v-98q0 -48 -34 -82t-81 -34q-48 0 -82 34t-34 82v34q0 16 16 16h32q16 0 16 -16v-34q0 -22 15 -37t37 -15q21 0 36 15t15 37v98q0 21 -15 36t-36 15h-100q-7 0 -11.5 5t-4.5 11v198q0 16 16 16h199q16 0 16 -16v-32
q0 -16 -16 -16z" />
    <glyph glyph-name="six" unicode="6" horiz-adv-x="314" 
d="M196 116v98q0 21 -15 36t-36 15q-22 0 -37 -15t-15 -36v-98q0 -22 15 -37t37 -15q21 0 36 15t15 37zM145 329q47 0 81 -33.5t34 -81.5v-98q0 -48 -34 -82t-81 -34q-48 0 -82 34t-34 82v264q0 47 34 81t82 34q47 0 81 -34t34 -81q0 -16 -16 -16h-32q-16 0 -16 16
q0 21 -15 36t-36 15q-22 0 -37 -15t-15 -36v-63q24 12 52 12z" />
    <glyph glyph-name="seven" unicode="7" horiz-adv-x="313" 
d="M243 495q16 0 16 -16v-32v-66q0 -25 -3 -33t-20 -31l-141 -186q-2 -3 -2 -16v-99q0 -6 -5 -11t-11 -5h-32q-7 0 -11.5 5t-4.5 11v99q0 24 3 32t20 32l141 185q2 4 2 17v50h-150q-16 0 -16 16v32q0 16 16 16h198z" />
    <glyph glyph-name="eight" unicode="8" horiz-adv-x="313" 
d="M259 380q0 -48 -35 -83q35 -33 35 -83v-98q0 -48 -33.5 -82t-81.5 -34t-81.5 34t-33.5 82v98q0 50 35 83q-35 35 -35 83v0v1q0 47 34 80.5t81 33.5t81 -33.5t34 -80.5v-1zM195 214q0 21 -15 36t-36 15t-36 -15t-15 -36v-98q0 -22 15 -37t36 -15t36 15t15 37v98zM144 329
q21 0 36 15t15 36t-15 36t-36 15t-36 -15t-15 -36t15 -36t36 -15z" />
    <glyph glyph-name="nine" unicode="9" horiz-adv-x="313" 
d="M196 332v48q0 21 -15.5 36t-36.5 15t-36 -15t-15 -36v-48q0 -22 15 -37t36 -15t36.5 15t15.5 37zM144 495q48 0 82 -34t34 -81v-264q0 -48 -34 -82t-82 -34q-47 0 -81 34t-34 82q0 16 16 16h32q16 0 16 -16q0 -22 15 -37t36 -15t36.5 15t15.5 37v112q-27 -12 -52 -12
q-47 0 -81 34t-34 82v48q0 47 34 81t81 34z" />
    <glyph glyph-name="colon" unicode=":" horiz-adv-x="147" 
d="M77 98q16 0 16 -16v-66q0 -16 -16 -16h-32q-16 0 -16 16v66q0 16 16 16h32zM77 340q16 0 16 -16v-66q0 -16 -16 -16h-32q-16 0 -16 16v66q0 16 16 16h32z" />
    <glyph glyph-name="semicolon" unicode=";" horiz-adv-x="147" 
d="M77 340q16 0 16 -16v-66q0 -16 -16 -16h-32q-16 0 -16 16v66q0 16 16 16h32zM77 98q16 0 16 -16v-195q0 -16 -16 -16h-32q-16 0 -16 16v195q0 16 16 16h32z" />
    <glyph glyph-name="equal" unicode="=" horiz-adv-x="279" 
d="M209 342q7 0 11.5 -5t4.5 -11v-32q0 -16 -16 -16h-164q-16 0 -16 16v32q0 6 4.5 11t11.5 5h164zM209 215q7 0 11.5 -5t4.5 -11v-32q0 -16 -16 -16h-164q-16 0 -16 16v32q0 6 4.5 11t11.5 5h164z" />
    <glyph glyph-name="question" unicode="?" horiz-adv-x="313" 
d="M77 37q16 0 16 -16v-66q0 -16 -16 -16h-32q-16 0 -16 16v66q0 16 16 16h32zM260 382q0 -25 -3 -33t-21 -31l-140 -186q-3 -4 -3 -16q0 -16 -16 -16h-32q-16 0 -16 16q0 24 3 32t21 32l140 185q3 4 3 17q0 21 -15 36t-37 15q-21 0 -36 -15t-15 -36v-35q0 -6 -4.5 -11
t-11.5 -5h-32q-7 0 -11.5 5t-4.5 11v35q0 47 34 81t81 34q48 0 82 -34t34 -81zM233 378v1v-1z" />
    <glyph glyph-name="at" unicode="@" horiz-adv-x="604" 
d="M354 494q47 0 81 -33.5t34 -81.5v-159q0 -48 -34 -82t-81 -34h-38q-7 0 -11.5 5t-4.5 11v89h-102v-88v-1q0 -6 -5 -11t-11 -5h-32q-7 0 -11.5 5t-4.5 11v1v154q0 47 33.5 81t81.5 34t81.5 -34t33.5 -81v-106q18 4 29.5 18t11.5 33v159q0 21 -15 36t-36 15h-210
q-21 0 -36 -15t-15 -36v-264q0 -21 15 -36t36 -15h160q7 0 11.5 -5t4.5 -11v-32q0 -16 -16 -16h-160q-47 0 -81 33.5t-34 81.5v264q0 48 34 81.5t81 33.5h210zM300 273v2q0 21 -15 36t-36 15t-36 -15t-15 -36v-2h102z" />
    <glyph glyph-name="A" unicode="A" horiz-adv-x="314" 
d="M145 494q47 0 81 -34t34 -81v-363q0 -16 -16 -16h-32q-16 0 -16 16v199h-103v-199q0 -16 -16 -16h-32q-16 0 -16 16v363q0 47 34 81t82 34zM196 279v100q0 21 -15 36t-36 15q-22 0 -37 -15t-15 -36v-100h103z" />
    <glyph glyph-name="B" unicode="B" horiz-adv-x="314" 
d="M196 164q0 22 -15 37t-36 15h-52v-151h52q21 0 36 15t15 36v48zM196 331v48q0 22 -15 37t-36 15h-52v-151h52q21 0 36 15t15 36zM260 379v-48q0 -50 -36 -83q36 -33 36 -84v-48q0 -48 -34 -82t-81 -34h-84q-13 0 -22.5 9.5t-9.5 22.5v431q0 13 9.5 22.5t22.5 9.5h84
q47 0 81 -34t34 -82z" />
    <glyph glyph-name="C" unicode="C" horiz-adv-x="303" 
d="M211 330q-16 0 -16 16v34q0 21 -15 36t-36 15t-36 -15t-15 -36v-265q0 -21 15 -36t36 -15t36 15t15 36v37q0 16 16 16h32q16 0 16 -16v-37q0 -47 -34 -81t-81 -34q-48 0 -81.5 34t-33.5 81v265q0 47 33.5 81t81.5 34q47 0 81 -34t34 -81v-34q0 -16 -16 -16h-32z" />
    <glyph glyph-name="D" unicode="D" horiz-adv-x="314" 
d="M196 116v263q0 22 -15 37t-36 15h-52v-366h52q21 0 36 15t15 36zM145 495q48 0 81.5 -34t33.5 -82v-263q0 -48 -33.5 -82t-81.5 -34h-84q-13 0 -22.5 9.5t-9.5 22.5v431q0 13 9.5 22.5t22.5 9.5h84z" />
    <glyph glyph-name="E" unicode="E" horiz-adv-x="250" 
d="M180 431h-87v-151h87q16 0 16 -16v-32q0 -16 -16 -16h-87v-152h87q16 0 16 -16v-32q0 -16 -16 -16h-119q-13 0 -22.5 9.5t-9.5 22.5v431q0 13 9.5 22.5t22.5 9.5h119q16 0 16 -16v-32q0 -16 -16 -16z" />
    <glyph glyph-name="F" unicode="F" horiz-adv-x="250" 
d="M180 431h-87v-151h87q16 0 16 -16v-32q0 -16 -16 -16h-87v-200q0 -16 -16 -16h-32q-16 0 -16 16v447q0 13 9.5 22.5t22.5 9.5h119q16 0 16 -16v-32q0 -16 -16 -16z" />
    <glyph glyph-name="G" unicode="G" horiz-adv-x="313" 
d="M211 329q-16 0 -16 16v34q0 22 -15 36.5t-36 14.5t-36 -14.5t-15 -36.5v-265q0 -21 15 -36t36 -15t36 15t15 36v103h-35q-7 0 -11.5 4.5t-4.5 10.5v32q0 16 16 16h83q16 0 16 -16v-150q0 -47 -34 -80.5t-81 -33.5t-81 33.5t-34 80.5v265q0 48 34 81.5t81 33.5t81 -33.5
t34 -81.5v-34q0 -16 -16 -16h-32z" />
    <glyph glyph-name="H" unicode="H" horiz-adv-x="313" 
d="M243 495q16 0 16 -16v-463q0 -16 -16 -16h-32q-6 0 -11 4.5t-5 11.5v200h-102v-200q0 -16 -16 -16h-32q-16 0 -16 16v463q0 16 16 16h32q16 0 16 -16v-199h102v199q0 7 5 11.5t11 4.5h32z" />
    <glyph glyph-name="I" unicode="I" horiz-adv-x="147" 
d="M93 479v-463q0 -16 -16 -16h-32q-16 0 -16 16v463q0 16 16 16h32q6 0 11 -4.5t5 -11.5z" />
    <glyph glyph-name="J" unicode="J" horiz-adv-x="313" 
d="M243 495q16 0 16 -16v-364q0 -47 -33.5 -81t-81.5 -34q-47 0 -81 34t-34 81v37q0 7 5 11.5t11 4.5h32q16 0 16 -16v-37q0 -21 15 -36t36 -15q22 0 36.5 15t14.5 36v364q0 7 5 11.5t11 4.5h32z" />
    <glyph glyph-name="K" unicode="K" horiz-adv-x="314" 
d="M260 479v-147q0 -50 -36 -84q36 -34 36 -83v-149q0 -6 -4.5 -11t-11.5 -5h-32q-7 0 -11.5 5t-4.5 11v149q0 21 -15 36t-37 15h-51v-200q0 -6 -4.5 -11t-11.5 -5h-32q-7 0 -11.5 5t-4.5 11v200v64v199q0 16 16 16h32q16 0 16 -16v-199h51q22 0 37 15t15 37v147q0 16 16 16
h32q16 0 16 -16z" />
    <glyph glyph-name="L" unicode="L" horiz-adv-x="239" 
d="M179 64q16 0 16 -16v-32q0 -6 -4.5 -11t-11.5 -5h-118q-13 0 -22.5 9.5t-9.5 22.5v447q0 16 16 16h32q6 0 11 -4.5t5 -11.5v-415h86z" />
    <glyph glyph-name="M" unicode="M" horiz-adv-x="481" 
d="M311 495q48 0 82 -34t34 -81v-364q0 -6 -4.5 -11t-11.5 -5h-32q-7 0 -11.5 5t-4.5 11v364q0 21 -15 36t-37 15q-21 0 -36 -15t-15 -36v-364q0 -6 -4.5 -11t-11.5 -5h-32q-7 0 -11.5 5t-4.5 11v364q0 21 -15 36t-36 15q-22 0 -37 -15t-15 -36v-364q0 -6 -4.5 -11t-11.5 -5
h-32q-6 0 -11 5t-5 11v364q0 47 34 81t82 34q49 0 83 -36q34 36 83 36z" />
    <glyph glyph-name="N" unicode="N" horiz-adv-x="314" 
d="M145 495q47 0 81 -34t34 -81v-364q0 -6 -4.5 -11t-11.5 -5h-32q-7 0 -11.5 5t-4.5 11v364q0 21 -15 36t-36 15q-22 0 -37 -15t-15 -36v-364q0 -6 -4.5 -11t-11.5 -5h-32q-7 0 -11.5 5t-4.5 11v364q0 47 34 81t82 34z" />
    <glyph glyph-name="O" unicode="O" horiz-adv-x="314" 
d="M196 116v264q0 21 -15 36t-36 15q-22 0 -37 -15t-15 -36v-264q0 -22 15 -37t37 -15q21 0 36 15t15 37zM145 495q47 0 81 -34t34 -81v-264q0 -48 -34 -82t-81 -34q-48 0 -82 34t-34 82v264q0 47 34 81t82 34z" />
    <glyph glyph-name="P" unicode="P" horiz-adv-x="293" 
d="M196 332v48q0 21 -15 36t-36 15h-52v-151h52q21 0 36 15t15 37zM145 495q47 0 81 -34t34 -81v-48q0 -48 -34 -82t-81 -34h-52v-200q0 -6 -4.5 -11t-11.5 -5h-32q-6 0 -11 5t-5 11v200v64v199q0 7 5 11.5t11 4.5h100z" />
    <glyph glyph-name="Q" unicode="Q" horiz-adv-x="314" 
d="M195 116v264q0 21 -15 36t-36 15t-36 -15t-15 -36v-264q0 -21 15 -36t36 -15t36 15t15 36zM144 495q47 0 81 -33.5t34 -81.5v-264q0 -39 -23.5 -69.5t-59.5 -41.5v-52q0 -16 -16 -16h-32q-16 0 -16 16v52q-36 11 -59.5 41.5t-23.5 69.5v264q0 48 33.5 81.5t81.5 33.5z
" />
    <glyph glyph-name="R" unicode="R" horiz-adv-x="308" 
d="M254 380v-48q0 -51 -35 -84q35 -33 35 -83v-149q0 -6 -4.5 -11t-11.5 -5h-32q-7 0 -11.5 5t-4.5 11v149q0 21 -15 36t-36 15h-51v-200q0 -6 -5 -11t-11 -5h-32q-7 0 -11.5 5t-4.5 11v447q0 13 9 22.5t23 9.5h83q48 0 81.5 -34t33.5 -81zM190 332v48q0 21 -15 36t-36 15
h-51v-151h51q21 0 36 15t15 37z" />
    <glyph glyph-name="S" unicode="S" horiz-adv-x="293" 
d="M201 330q-16 0 -16 16v34q0 21 -15 36t-36 15t-36 -15t-15 -36q0 -13 3 -17l139 -184q18 -24 21 -32t3 -32q0 -47 -34 -81t-81 -34t-81 34t-34 81v34q0 16 16 16h32q16 0 16 -16v-34q0 -21 15 -36t36 -15t36 15t15 36q0 13 -3 17l-139 184q-18 24 -21 32t-3 32
q0 47 34 81t81 34t81 -34t34 -81v-34q0 -16 -16 -16h-32z" />
    <glyph glyph-name="T" unicode="T" horiz-adv-x="249" 
d="M189 495q16 0 16 -16v-32q0 -16 -16 -16h-45v-415q0 -6 -4.5 -11t-11.5 -5h-32q-7 0 -11.5 5t-4.5 11v415h-45q-16 0 -16 16v32q0 16 16 16h154z" />
    <glyph glyph-name="U" unicode="U" horiz-adv-x="314" 
d="M244 495q16 0 16 -16v-363q0 -48 -34 -82t-81 -34q-48 0 -82 34t-34 82v363q0 7 5 11.5t11 4.5h32q16 0 16 -16v-363q0 -22 15 -37t37 -15q21 0 36 15t15 37v363q0 16 16 16h32z" />
    <glyph glyph-name="V" unicode="V" horiz-adv-x="314" 
d="M243 494q16 0 16 -16v-311q0 -34 -19 -64l-54 -95q-5 -8 -14 -8h-56q-9 0 -14 8l-54 95q-19 30 -19 64v311q0 16 16 16h32q16 0 16 -16v-311q0 -9 3 -16l48 -86l49 86q2 10 2 16v311q0 7 5 11.5t11 4.5h32z" />
    <glyph glyph-name="W" unicode="W" horiz-adv-x="480" 
d="M410 494q16 0 16 -16v-310q0 -36 -19 -64l-54 -96q-6 -8 -14 -8h-56q-8 0 -14 8l-41 74l-42 -74q-6 -8 -14 -8h-56q-9 0 -13 8l-55 96q-19 28 -19 64v310q0 16 16 16h32q16 0 16 -16v-310q0 -8 3 -17l48 -85l49 85q3 9 3 17v310q0 16 16 16h32q6 0 11 -4.5t5 -11.5v-310
q0 -5 2 -17l49 -85l48 85q3 9 3 17v310q0 16 16 16h32z" />
    <glyph glyph-name="X" unicode="X" horiz-adv-x="314" 
d="M260 414q0 -36 -20 -64l-58 -104l58 -104q20 -28 20 -64v-62q0 -6 -4.5 -11t-11.5 -5h-32q-7 0 -11.5 5t-4.5 11v62q0 10 -3 17l-49 86l-48 -86q-3 -7 -3 -17v-62q0 -6 -4.5 -11t-11.5 -5h-32q-7 0 -11.5 5t-4.5 11v62q0 36 20 64l58 104l-59 104q-19 28 -19 64v65
q0 16 16 16h32q16 0 16 -16v-65q0 -8 3 -17l48 -85l49 85q3 9 3 17v65q0 16 16 16h32q16 0 16 -16v-65z" />
    <glyph glyph-name="Y" unicode="Y" horiz-adv-x="294" 
d="M234 495q16 0 16 -16v-147q0 -39 -23.5 -69.5t-59.5 -41.5v-205q0 -6 -5 -11t-11 -5h-32q-7 0 -11.5 5t-4.5 11v205q-37 11 -60.5 41.5t-23.5 69.5v147q0 16 16 16h32q16 0 16 -16v-147q0 -22 15 -37t37 -15q21 0 36 15t15 37v147q0 16 16 16h32z" />
    <glyph glyph-name="Z" unicode="Z" horiz-adv-x="303" 
d="M243 495q16 0 16 -16v-32v-66q0 -25 -3 -33t-20 -31l-140 -186q-3 -3 -3 -16v-51h150q16 0 16 -16v-32q0 -6 -4.5 -11t-11.5 -5h-198q-7 0 -11.5 5t-4.5 11v99q0 24 3 32t20 32l141 185q2 4 2 17v50h-150q-16 0 -16 16v32q0 16 16 16h198z" />
    <glyph glyph-name="bracketleft" unicode="[" horiz-adv-x="249" 
d="M179 431h-86v-367h86q16 0 16 -16v-32q0 -6 -4.5 -11t-11.5 -5h-134q-7 0 -11.5 5t-4.5 11v463q0 16 16 16h134q16 0 16 -16v-32q0 -16 -16 -16z" />
    <glyph glyph-name="backslash" unicode="\" horiz-adv-x="314" 
d="M29 381v98q0 16 16 16h32q16 0 16 -16v-98q0 -13 3 -17l140 -185q18 -24 21 -32t3 -32v-99q0 -6 -5 -11t-11 -5h-32q-7 0 -11.5 5t-4.5 11v99q0 13 -3 16l-140 186q-18 23 -21 31t-3 33z" />
    <glyph glyph-name="bracketright" unicode="]" horiz-adv-x="249" 
d="M132 431h-87q-16 0 -16 16v32q0 16 16 16h135q6 0 11 -4.5t5 -11.5v-463q0 -6 -5 -11t-11 -5h-135q-7 0 -11.5 5t-4.5 11v32q0 16 16 16h87v367z" />
    <glyph glyph-name="asciicircum" unicode="^" horiz-adv-x="299" 
d="M43 562q-9 0 -12 5t1 13l58 102q9 16 28 18q1 1 19 1t19 -1q19 -2 28 -18l58 -102q4 -8 1 -13t-12 -5h-31q-21 0 -32 18l-31 56l-31 -56q-11 -18 -32 -18h-31z" />
    <glyph glyph-name="grave" unicode="`" horiz-adv-x="221" 
d="M91 580l-58 103q-4 7 -1 12.5t12 5.5h31q21 0 32 -18l58 -103q4 -8 1 -13t-12 -5h-31q-21 0 -32 18z" />
    <glyph glyph-name="a" unicode="a" horiz-adv-x="314" 
d="M145 494q47 0 81 -34t34 -81v-363q0 -16 -16 -16h-32q-16 0 -16 16v199h-103v-199q0 -16 -16 -16h-32q-16 0 -16 16v363q0 47 34 81t82 34zM196 279v100q0 21 -15 36t-36 15q-22 0 -37 -15t-15 -36v-100h103z" />
    <glyph glyph-name="b" unicode="b" horiz-adv-x="314" 
d="M196 164q0 22 -15 37t-36 15h-52v-151h52q21 0 36 15t15 36v48zM196 331v48q0 22 -15 37t-36 15h-52v-151h52q21 0 36 15t15 36zM260 379v-48q0 -50 -36 -83q36 -33 36 -84v-48q0 -48 -34 -82t-81 -34h-84q-13 0 -22.5 9.5t-9.5 22.5v431q0 13 9.5 22.5t22.5 9.5h84
q47 0 81 -34t34 -82z" />
    <glyph glyph-name="c" unicode="c" horiz-adv-x="303" 
d="M211 330q-16 0 -16 16v34q0 21 -15 36t-36 15t-36 -15t-15 -36v-265q0 -21 15 -36t36 -15t36 15t15 36v37q0 16 16 16h32q16 0 16 -16v-37q0 -47 -34 -81t-81 -34q-48 0 -81.5 34t-33.5 81v265q0 47 33.5 81t81.5 34q47 0 81 -34t34 -81v-34q0 -16 -16 -16h-32z" />
    <glyph glyph-name="d" unicode="d" horiz-adv-x="314" 
d="M196 116v263q0 22 -15 37t-36 15h-52v-366h52q21 0 36 15t15 36zM145 495q48 0 81.5 -34t33.5 -82v-263q0 -48 -33.5 -82t-81.5 -34h-84q-13 0 -22.5 9.5t-9.5 22.5v431q0 13 9.5 22.5t22.5 9.5h84z" />
    <glyph glyph-name="e" unicode="e" horiz-adv-x="250" 
d="M180 431h-87v-151h87q16 0 16 -16v-32q0 -16 -16 -16h-87v-152h87q16 0 16 -16v-32q0 -16 -16 -16h-119q-13 0 -22.5 9.5t-9.5 22.5v431q0 13 9.5 22.5t22.5 9.5h119q16 0 16 -16v-32q0 -16 -16 -16z" />
    <glyph glyph-name="f" unicode="f" horiz-adv-x="250" 
d="M180 431h-87v-151h87q16 0 16 -16v-32q0 -16 -16 -16h-87v-200q0 -16 -16 -16h-32q-16 0 -16 16v447q0 13 9.5 22.5t22.5 9.5h119q16 0 16 -16v-32q0 -16 -16 -16z" />
    <glyph glyph-name="g" unicode="g" horiz-adv-x="313" 
d="M211 329q-16 0 -16 16v34q0 22 -15 36.5t-36 14.5t-36 -14.5t-15 -36.5v-265q0 -21 15 -36t36 -15t36 15t15 36v103h-35q-7 0 -11.5 4.5t-4.5 10.5v32q0 16 16 16h83q16 0 16 -16v-150q0 -47 -34 -80.5t-81 -33.5t-81 33.5t-34 80.5v265q0 48 34 81.5t81 33.5t81 -33.5
t34 -81.5v-34q0 -16 -16 -16h-32z" />
    <glyph glyph-name="h" unicode="h" horiz-adv-x="313" 
d="M243 495q16 0 16 -16v-463q0 -16 -16 -16h-32q-6 0 -11 4.5t-5 11.5v200h-102v-200q0 -16 -16 -16h-32q-16 0 -16 16v463q0 16 16 16h32q16 0 16 -16v-199h102v199q0 7 5 11.5t11 4.5h32z" />
    <glyph glyph-name="i" unicode="i" horiz-adv-x="147" 
d="M93 479v-463q0 -16 -16 -16h-32q-16 0 -16 16v463q0 16 16 16h32q6 0 11 -4.5t5 -11.5z" />
    <glyph glyph-name="j" unicode="j" horiz-adv-x="313" 
d="M243 495q16 0 16 -16v-364q0 -47 -33.5 -81t-81.5 -34q-47 0 -81 34t-34 81v37q0 7 5 11.5t11 4.5h32q16 0 16 -16v-37q0 -21 15 -36t36 -15q22 0 36.5 15t14.5 36v364q0 7 5 11.5t11 4.5h32z" />
    <glyph glyph-name="k" unicode="k" horiz-adv-x="314" 
d="M260 479v-147q0 -50 -36 -84q36 -34 36 -83v-149q0 -6 -4.5 -11t-11.5 -5h-32q-7 0 -11.5 5t-4.5 11v149q0 21 -15 36t-37 15h-51v-200q0 -6 -4.5 -11t-11.5 -5h-32q-7 0 -11.5 5t-4.5 11v200v64v199q0 16 16 16h32q16 0 16 -16v-199h51q22 0 37 15t15 37v147q0 16 16 16
h32q16 0 16 -16z" />
    <glyph glyph-name="l" unicode="l" horiz-adv-x="239" 
d="M179 64q16 0 16 -16v-32q0 -6 -4.5 -11t-11.5 -5h-118q-13 0 -22.5 9.5t-9.5 22.5v447q0 16 16 16h32q6 0 11 -4.5t5 -11.5v-415h86z" />
    <glyph glyph-name="m" unicode="m" horiz-adv-x="481" 
d="M311 495q48 0 82 -34t34 -81v-364q0 -6 -4.5 -11t-11.5 -5h-32q-7 0 -11.5 5t-4.5 11v364q0 21 -15 36t-37 15q-21 0 -36 -15t-15 -36v-364q0 -6 -4.5 -11t-11.5 -5h-32q-7 0 -11.5 5t-4.5 11v364q0 21 -15 36t-36 15q-22 0 -37 -15t-15 -36v-364q0 -6 -4.5 -11t-11.5 -5
h-32q-6 0 -11 5t-5 11v364q0 47 34 81t82 34q49 0 83 -36q34 36 83 36z" />
    <glyph glyph-name="n" unicode="n" horiz-adv-x="314" 
d="M145 495q47 0 81 -34t34 -81v-364q0 -6 -4.5 -11t-11.5 -5h-32q-7 0 -11.5 5t-4.5 11v364q0 21 -15 36t-36 15q-22 0 -37 -15t-15 -36v-364q0 -6 -4.5 -11t-11.5 -5h-32q-7 0 -11.5 5t-4.5 11v364q0 47 34 81t82 34z" />
    <glyph glyph-name="o" unicode="o" horiz-adv-x="314" 
d="M196 116v264q0 21 -15 36t-36 15q-22 0 -37 -15t-15 -36v-264q0 -22 15 -37t37 -15q21 0 36 15t15 37zM145 495q47 0 81 -34t34 -81v-264q0 -48 -34 -82t-81 -34q-48 0 -82 34t-34 82v264q0 47 34 81t82 34z" />
    <glyph glyph-name="p" unicode="p" horiz-adv-x="293" 
d="M196 332v48q0 21 -15 36t-36 15h-52v-151h52q21 0 36 15t15 37zM145 495q47 0 81 -34t34 -81v-48q0 -48 -34 -82t-81 -34h-52v-200q0 -6 -4.5 -11t-11.5 -5h-32q-6 0 -11 5t-5 11v200v64v199q0 7 5 11.5t11 4.5h100z" />
    <glyph glyph-name="q" unicode="q" horiz-adv-x="314" 
d="M195 116v264q0 21 -15 36t-36 15t-36 -15t-15 -36v-264q0 -21 15 -36t36 -15t36 15t15 36zM144 495q47 0 81 -33.5t34 -81.5v-264q0 -39 -23.5 -69.5t-59.5 -41.5v-52q0 -16 -16 -16h-32q-16 0 -16 16v52q-36 11 -59.5 41.5t-23.5 69.5v264q0 48 33.5 81.5t81.5 33.5z
" />
    <glyph glyph-name="r" unicode="r" horiz-adv-x="308" 
d="M254 380v-48q0 -51 -35 -84q35 -33 35 -83v-149q0 -6 -4.5 -11t-11.5 -5h-32q-7 0 -11.5 5t-4.5 11v149q0 21 -15 36t-36 15h-51v-200q0 -6 -5 -11t-11 -5h-32q-7 0 -11.5 5t-4.5 11v447q0 13 9 22.5t23 9.5h83q48 0 81.5 -34t33.5 -81zM190 332v48q0 21 -15 36t-36 15
h-51v-151h51q21 0 36 15t15 37z" />
    <glyph glyph-name="s" unicode="s" horiz-adv-x="293" 
d="M201 330q-16 0 -16 16v34q0 21 -15 36t-36 15t-36 -15t-15 -36q0 -13 3 -17l139 -184q18 -24 21 -32t3 -32q0 -47 -34 -81t-81 -34t-81 34t-34 81v34q0 16 16 16h32q16 0 16 -16v-34q0 -21 15 -36t36 -15t36 15t15 36q0 13 -3 17l-139 184q-18 24 -21 32t-3 32
q0 47 34 81t81 34t81 -34t34 -81v-34q0 -16 -16 -16h-32z" />
    <glyph glyph-name="t" unicode="t" horiz-adv-x="249" 
d="M189 495q16 0 16 -16v-32q0 -16 -16 -16h-45v-415q0 -6 -4.5 -11t-11.5 -5h-32q-7 0 -11.5 5t-4.5 11v415h-45q-16 0 -16 16v32q0 16 16 16h154z" />
    <glyph glyph-name="u" unicode="u" horiz-adv-x="314" 
d="M244 495q16 0 16 -16v-363q0 -48 -34 -82t-81 -34q-48 0 -82 34t-34 82v363q0 7 5 11.5t11 4.5h32q16 0 16 -16v-363q0 -22 15 -37t37 -15q21 0 36 15t15 37v363q0 16 16 16h32z" />
    <glyph glyph-name="v" unicode="v" horiz-adv-x="314" 
d="M243 494q16 0 16 -16v-311q0 -34 -19 -64l-54 -95q-5 -8 -14 -8h-56q-9 0 -14 8l-54 95q-19 30 -19 64v311q0 16 16 16h32q16 0 16 -16v-311q0 -9 3 -16l48 -86l49 86q2 10 2 16v311q0 7 5 11.5t11 4.5h32z" />
    <glyph glyph-name="w" unicode="w" horiz-adv-x="480" 
d="M410 494q16 0 16 -16v-310q0 -36 -19 -64l-54 -96q-6 -8 -14 -8h-56q-8 0 -14 8l-41 74l-42 -74q-6 -8 -14 -8h-56q-9 0 -13 8l-55 96q-19 28 -19 64v310q0 16 16 16h32q16 0 16 -16v-310q0 -8 3 -17l48 -85l49 85q3 9 3 17v310q0 16 16 16h32q6 0 11 -4.5t5 -11.5v-310
q0 -5 2 -17l49 -85l48 85q3 9 3 17v310q0 16 16 16h32z" />
    <glyph glyph-name="x" unicode="x" horiz-adv-x="314" 
d="M260 414q0 -36 -20 -64l-58 -104l58 -104q20 -28 20 -64v-62q0 -6 -4.5 -11t-11.5 -5h-32q-7 0 -11.5 5t-4.5 11v62q0 10 -3 17l-49 86l-48 -86q-3 -7 -3 -17v-62q0 -6 -4.5 -11t-11.5 -5h-32q-7 0 -11.5 5t-4.5 11v62q0 36 20 64l58 104l-59 104q-19 28 -19 64v65
q0 16 16 16h32q16 0 16 -16v-65q0 -8 3 -17l48 -85l49 85q3 9 3 17v65q0 16 16 16h32q16 0 16 -16v-65z" />
    <glyph glyph-name="y" unicode="y" horiz-adv-x="294" 
d="M234 495q16 0 16 -16v-147q0 -39 -23.5 -69.5t-59.5 -41.5v-205q0 -6 -5 -11t-11 -5h-32q-7 0 -11.5 5t-4.5 11v205q-37 11 -60.5 41.5t-23.5 69.5v147q0 16 16 16h32q16 0 16 -16v-147q0 -22 15 -37t37 -15q21 0 36 15t15 37v147q0 16 16 16h32z" />
    <glyph glyph-name="z" unicode="z" horiz-adv-x="303" 
d="M243 495q16 0 16 -16v-32v-66q0 -25 -3 -33t-20 -31l-140 -186q-3 -3 -3 -16v-51h150q16 0 16 -16v-32q0 -6 -4.5 -11t-11.5 -5h-198q-7 0 -11.5 5t-4.5 11v99q0 24 3 32t20 32l141 185q2 4 2 17v50h-150q-16 0 -16 16v32q0 16 16 16h198z" />
    <glyph glyph-name="exclamdown" unicode="&#xa1;" horiz-adv-x="147" 
d="M45 400q-16 0 -16 16v66q0 16 16 16h32q16 0 16 -16v-66q0 -16 -16 -16h-32zM29 -44v365q0 16 16 16h32q16 0 16 -16v-365q0 -16 -16 -16h-32q-16 0 -16 16z" />
    <glyph glyph-name="dieresis" unicode="&#xa8;" horiz-adv-x="249" 
d="M148 561q-16 0 -16 16v66q0 6 4.5 11t11.5 5h31q7 0 11.5 -5t4.5 -11v-66q0 -16 -16 -16h-31zM45 561q-16 0 -16 16v66q0 6 4.5 11t11.5 5h32q7 0 11.5 -5t4.5 -11v-66q0 -16 -16 -16h-32z" />
    <glyph glyph-name="macron" unicode="&#xaf;" 
 />
    <glyph glyph-name="acute" unicode="&#xb4;" horiz-adv-x="220" 
d="M43 562q-9 0 -12 5t1 13l58 102q9 18 31 18h31q9 0 12 -5t-1 -13l-58 -102q-9 -18 -31 -18h-31z" />
    <glyph glyph-name="middot" unicode="&#xb7;" 
 />
    <glyph glyph-name="cedilla" unicode="&#xb8;" 
 />
    <glyph glyph-name="questiondown" unicode="&#xbf;" horiz-adv-x="313" 
d="M212 399q-16 0 -16 16v66q0 16 16 16h32q16 0 16 -16v-66q0 -16 -16 -16h-32zM29 54q0 24 3 32t21 32l140 185q3 4 3 17q0 16 16 16h32q16 0 16 -16q0 -25 -3 -33t-21 -31l-140 -185q-3 -4 -3 -17q0 -21 15 -36t36 -15q22 0 37 15t15 36v34q0 16 16 16h32q16 0 16 -16
v-34q0 -48 -34 -81.5t-82 -33.5q-47 0 -81 33.5t-34 81.5zM56 57v-1v1z" />
    <glyph glyph-name="Agrave" unicode="&#xc0;" horiz-adv-x="314" 
d="M196 280v99q0 21 -15 36t-37 15q-21 0 -36 -15t-15 -36v-99h103zM98 580l-58 103q-4 7 -1 12.5t12 5.5h31q21 0 32 -18l58 -103q4 -8 1 -13t-12 -5h-31q-21 0 -32 18zM144 494q48 0 82 -33.5t34 -81.5v-363q0 -16 -16 -16h-32q-16 0 -16 16v200h-103v-200q0 -16 -16 -16
h-32q-16 0 -16 16v363q0 48 34 81.5t81 33.5z" />
    <glyph glyph-name="Aacute" unicode="&#xc1;" horiz-adv-x="314" 
d="M196 280v99q0 21 -15 36t-36 15q-22 0 -37 -15t-15 -36v-99h103zM145 494q47 0 81 -33.5t34 -81.5v-363q0 -16 -16 -16h-32q-16 0 -16 16v200h-103v-200q0 -16 -16 -16h-32q-16 0 -16 16v363q0 48 34 81.5t82 33.5zM124 562q-9 0 -12 5t1 13l58 102q9 18 31 18h31
q9 0 12 -5t-1 -13l-58 -102q-9 -18 -31 -18h-31z" />
    <glyph glyph-name="Acircumflex" unicode="&#xc2;" horiz-adv-x="314" 
d="M196 280v99q0 21 -15 36t-36 15q-22 0 -37 -15t-15 -36v-99h103zM145 494q47 0 81 -33.5t34 -81.5v-363q0 -16 -16 -16h-32q-16 0 -16 16v200h-103v-200q0 -16 -16 -16h-32q-16 0 -16 16v363q0 48 34 81.5t82 33.5zM50 562q-9 0 -12 5t1 13l58 102q9 16 28 18q1 1 19 1
t19 -1q19 -2 28 -18l58 -102q4 -8 1 -13t-12 -5h-31q-21 0 -32 18l-31 56l-31 -56q-11 -18 -32 -18h-31z" />
    <glyph glyph-name="Atilde" unicode="&#xc3;" 
 />
    <glyph glyph-name="Adieresis" unicode="&#xc4;" horiz-adv-x="314" 
d="M196 280v99q0 21 -15 36t-36 15q-22 0 -37 -15t-15 -36v-99h103zM145 494q47 0 81 -33.5t34 -81.5v-363q0 -16 -16 -16h-32q-16 0 -16 16v200h-103v-200q0 -16 -16 -16h-32q-16 0 -16 16v363q0 48 34 81.5t82 33.5zM180 561q-16 0 -16 16v66q0 6 4.5 11t11.5 5h31
q7 0 11.5 -5t4.5 -11v-66q0 -16 -16 -16h-31zM77 561q-16 0 -16 16v66q0 6 4.5 11t11.5 5h32q7 0 11.5 -5t4.5 -11v-66q0 -16 -16 -16h-32z" />
    <glyph glyph-name="Aring" unicode="&#xc5;" 
 />
    <glyph glyph-name="AE" unicode="&#xc6;" 
 />
    <glyph glyph-name="Ccedilla" unicode="&#xc7;" horiz-adv-x="313" 
d="M212 331q-16 0 -16 16v34q0 21 -15 36t-37 15q-21 0 -36 -15t-15 -36v-266q0 -21 15 -36t36 -15q22 0 37 15t15 36v37q0 16 16 16h32q6 0 11 -4.5t5 -11.5v-37q0 -39 -24 -69.5t-60 -41.5v-50q0 -16 -16 -16h-32q-16 0 -16 16v50q-36 11 -59.5 41.5t-23.5 69.5v266
q0 48 34 81.5t81 33.5q48 0 82 -33.5t34 -81.5v-34q0 -7 -5 -11.5t-11 -4.5h-32z" />
    <glyph glyph-name="Egrave" unicode="&#xc8;" horiz-adv-x="250" 
d="M66 580l-58 103q-4 7 -1 12.5t12 5.5h31q21 0 32 -18l58 -103q4 -8 1 -13t-12 -5h-31q-21 0 -32 18zM180 431h-87v-151h87q16 0 16 -16v-32q0 -16 -16 -16h-87v-152h87q16 0 16 -16v-32q0 -16 -16 -16h-119q-13 0 -22.5 9.5t-9.5 22.5v431q0 13 9.5 22.5t22.5 9.5h119
q16 0 16 -16v-32q0 -16 -16 -16z" />
    <glyph glyph-name="Eacute" unicode="&#xc9;" horiz-adv-x="269" 
d="M92 562q-9 0 -12 5t1 13l58 102q9 18 31 18h31q9 0 12 -5t-1 -13l-58 -102q-9 -18 -31 -18h-31zM180 431h-87v-151h87q16 0 16 -16v-32q0 -16 -16 -16h-87v-152h87q16 0 16 -16v-32q0 -16 -16 -16h-119q-13 0 -22.5 9.5t-9.5 22.5v431q0 13 9.5 22.5t22.5 9.5h119
q16 0 16 -16v-32q0 -16 -16 -16z" />
    <glyph glyph-name="Ecircumflex" unicode="&#xca;" horiz-adv-x="250" 
d="M181 431h-87v-151h87q16 0 16 -16v-32q0 -16 -16 -16h-87v-152h87q16 0 16 -16v-32q0 -16 -16 -16h-119q-13 0 -22.5 9.5t-9.5 22.5v431q0 13 9 22.5t23 9.5h119q16 0 16 -16v-32q0 -16 -16 -16zM19 562q-9 0 -12 5t1 13l58 102q9 16 28 18q1 1 19 1t19 -1q19 -2 28 -18
l58 -102q4 -8 1 -13t-12 -5h-31q-21 0 -32 18l-31 56l-31 -56q-11 -18 -32 -18h-31z" />
    <glyph glyph-name="Edieresis" unicode="&#xcb;" horiz-adv-x="250" 
d="M180 431h-87v-151h87q16 0 16 -16v-32q0 -16 -16 -16h-87v-152h87q16 0 16 -16v-32q0 -16 -16 -16h-119q-13 0 -22.5 9.5t-9.5 22.5v431q0 13 9.5 22.5t22.5 9.5h119q16 0 16 -16v-32q0 -16 -16 -16zM148 561q-16 0 -16 16v66q0 6 4.5 11t11.5 5h31q7 0 11.5 -5t4.5 -11
v-66q0 -16 -16 -16h-31zM45 561q-16 0 -16 16v66q0 6 4.5 11t11.5 5h32q7 0 11.5 -5t4.5 -11v-66q0 -16 -16 -16h-32z" />
    <glyph glyph-name="Igrave" unicode="&#xcc;" horiz-adv-x="147" 
d="M16 580l-58 103q-4 7 -1 12.5t12 5.5h31q21 0 32 -18l58 -103q4 -8 1 -13t-12 -5h-31q-21 0 -32 18zM95 479v-463q0 -16 -16 -16h-32q-16 0 -16 16v463q0 16 16 16h32q6 0 11 -4.5t5 -11.5z" />
    <glyph glyph-name="Iacute" unicode="&#xcd;" horiz-adv-x="147" 
d="M41 562q-9 0 -12 5t1 13l58 102q9 18 31 18h31q9 0 12 -5t-1 -13l-58 -102q-9 -18 -31 -18h-31zM94 479v-463q0 -16 -16 -16h-32q-16 0 -16 16v463q0 16 16 16h32q6 0 11 -4.5t5 -11.5z" />
    <glyph glyph-name="Icircumflex" unicode="&#xce;" horiz-adv-x="147" 
d="M94 479v-463q0 -16 -16 -16h-32q-16 0 -16 16v463q0 16 16 16h32q6 0 11 -4.5t5 -11.5zM-33 562q-9 0 -12 5t1 13l58 102q9 16 28 18q1 1 19 1t19 -1q19 -2 28 -18l58 -102q4 -8 1 -13t-12 -5h-31q-21 0 -32 18l-31 56l-31 -56q-11 -18 -32 -18h-31z" />
    <glyph glyph-name="Idieresis" unicode="&#xcf;" horiz-adv-x="147" 
d="M93 479v-463q0 -16 -16 -16h-32q-16 0 -16 16v463q0 16 16 16h32q6 0 11 -4.5t5 -11.5zM97 561q-16 0 -16 16v66q0 6 4.5 11t11.5 5h31q7 0 11.5 -5t4.5 -11v-66q0 -16 -16 -16h-31zM-6 561q-16 0 -16 16v66q0 6 4.5 11t11.5 5h32q7 0 11.5 -5t4.5 -11v-66q0 -16 -16 -16
h-32z" />
    <glyph glyph-name="Ntilde" unicode="&#xd1;" horiz-adv-x="313" 
d="M77 561q-16 0 -16 16v32q0 16 16 16h135q16 0 16 -16v-32q0 -16 -16 -16h-135zM145 495q47 0 81 -34t34 -81v-364q0 -6 -4.5 -11t-11.5 -5h-32q-7 0 -11.5 5t-4.5 11v364q0 21 -15 36t-36 15q-22 0 -37 -15t-15 -36v-364q0 -6 -4.5 -11t-11.5 -5h-32q-7 0 -11.5 5
t-4.5 11v364q0 47 34 81t82 34z" />
    <glyph glyph-name="Ograve" unicode="&#xd2;" horiz-adv-x="314" 
d="M98 580l-58 103q-4 7 -1 12.5t12 5.5h31q21 0 32 -18l58 -103q4 -8 1 -13t-12 -5h-31q-21 0 -32 18zM196 116v264q0 21 -15 36t-36 15q-22 0 -37 -15t-15 -36v-264q0 -22 15 -37t37 -15q21 0 36 15t15 37zM145 495q47 0 81 -34t34 -81v-264q0 -48 -34 -82t-81 -34
q-48 0 -82 34t-34 82v264q0 47 34 81t82 34z" />
    <glyph glyph-name="Oacute" unicode="&#xd3;" horiz-adv-x="314" 
d="M128 562q-9 0 -12 5t1 13l58 102q9 18 31 18h31q9 0 12 -5t-1 -13l-58 -102q-9 -18 -31 -18h-31zM196 116v264q0 21 -15 36t-36 15q-22 0 -37 -15t-15 -36v-264q0 -22 15 -37t37 -15q21 0 36 15t15 37zM145 495q47 0 81 -34t34 -81v-264q0 -48 -34 -82t-81 -34
q-48 0 -82 34t-34 82v264q0 47 34 81t82 34z" />
    <glyph glyph-name="Ocircumflex" unicode="&#xd4;" horiz-adv-x="313" 
d="M196 116v264q0 21 -15 36t-36 15q-22 0 -37 -15t-15 -36v-264q0 -22 15 -37t37 -15q21 0 36 15t15 37zM145 495q47 0 81 -34t34 -81v-264q0 -48 -34 -82t-81 -34q-48 0 -82 34t-34 82v264q0 47 34 81t82 34zM50 562q-9 0 -12 5t1 13l58 102q9 16 28 18q1 1 19 1t19 -1
q19 -2 28 -18l58 -102q4 -8 1 -13t-12 -5h-31q-21 0 -32 18l-31 56l-31 -56q-11 -18 -32 -18h-31z" />
    <glyph glyph-name="Otilde" unicode="&#xd5;" 
 />
    <glyph glyph-name="Odieresis" unicode="&#xd6;" horiz-adv-x="314" 
d="M196 116v264q0 21 -15 36t-36 15q-22 0 -37 -15t-15 -36v-264q0 -22 15 -37t37 -15q21 0 36 15t15 37zM145 495q47 0 81 -34t34 -81v-264q0 -48 -34 -82t-81 -34q-48 0 -82 34t-34 82v264q0 47 34 81t82 34zM180 561q-16 0 -16 16v66q0 6 4.5 11t11.5 5h31q7 0 11.5 -5
t4.5 -11v-66q0 -16 -16 -16h-31zM77 561q-16 0 -16 16v66q0 6 4.5 11t11.5 5h32q7 0 11.5 -5t4.5 -11v-66q0 -16 -16 -16h-32z" />
    <glyph glyph-name="Oslash" unicode="&#xd8;" 
 />
    <glyph glyph-name="Ugrave" unicode="&#xd9;" horiz-adv-x="314" 
d="M98 580l-58 103q-4 7 -1 12.5t12 5.5h31q21 0 32 -18l58 -103q4 -8 1 -13t-12 -5h-31q-21 0 -32 18zM244 495q16 0 16 -16v-363q0 -48 -34 -82t-81 -34q-48 0 -82 34t-34 82v363q0 7 5 11.5t11 4.5h32q16 0 16 -16v-363q0 -22 15 -37t37 -15q21 0 36 15t15 37v363
q0 16 16 16h32z" />
    <glyph glyph-name="Uacute" unicode="&#xda;" horiz-adv-x="314" 
d="M123 562q-9 0 -12 5t1 13l58 102q9 18 31 18h31q9 0 12 -5t-1 -13l-58 -102q-9 -18 -31 -18h-31zM244 495q16 0 16 -16v-363q0 -48 -34 -82t-81 -34q-48 0 -82 34t-34 82v363q0 7 5 11.5t11 4.5h32q16 0 16 -16v-363q0 -22 15 -37t37 -15q21 0 36 15t15 37v363
q0 16 16 16h32z" />
    <glyph glyph-name="Ucircumflex" unicode="&#xdb;" horiz-adv-x="314" 
d="M244 495q16 0 16 -16v-363q0 -48 -34 -82t-81 -34q-48 0 -82 34t-34 82v363q0 7 5 11.5t11 4.5h32q16 0 16 -16v-363q0 -22 15 -37t37 -15q21 0 36 15t15 37v363q0 16 16 16h32zM50 562q-9 0 -12 5t1 13l58 102q9 16 28 18q1 1 19 1t19 -1q19 -2 28 -18l58 -102
q4 -8 1 -13t-12 -5h-31q-21 0 -32 18l-31 56l-31 -56q-11 -18 -32 -18h-31z" />
    <glyph glyph-name="Udieresis" unicode="&#xdc;" horiz-adv-x="314" 
d="M244 495q16 0 16 -16v-363q0 -48 -34 -82t-81 -34q-48 0 -82 34t-34 82v363q0 7 5 11.5t11 4.5h32q16 0 16 -16v-363q0 -22 15 -37t37 -15q21 0 36 15t15 37v363q0 16 16 16h32zM180 561q-16 0 -16 16v66q0 6 4.5 11t11.5 5h31q7 0 11.5 -5t4.5 -11v-66q0 -16 -16 -16
h-31zM77 561q-16 0 -16 16v66q0 6 4.5 11t11.5 5h32q7 0 11.5 -5t4.5 -11v-66q0 -16 -16 -16h-32z" />
    <glyph glyph-name="Yacute" unicode="&#xdd;" 
 />
    <glyph glyph-name="agrave" unicode="&#xe0;" horiz-adv-x="314" 
d="M196 280v99q0 21 -15 36t-37 15q-21 0 -36 -15t-15 -36v-99h103zM98 580l-58 103q-4 7 -1 12.5t12 5.5h31q21 0 32 -18l58 -103q4 -8 1 -13t-12 -5h-31q-21 0 -32 18zM144 494q48 0 82 -33.5t34 -81.5v-363q0 -16 -16 -16h-32q-16 0 -16 16v200h-103v-200q0 -16 -16 -16
h-32q-16 0 -16 16v363q0 48 34 81.5t81 33.5z" />
    <glyph glyph-name="aacute" unicode="&#xe1;" horiz-adv-x="314" 
d="M196 280v99q0 21 -15 36t-36 15q-22 0 -37 -15t-15 -36v-99h103zM145 494q47 0 81 -33.5t34 -81.5v-363q0 -16 -16 -16h-32q-16 0 -16 16v200h-103v-200q0 -16 -16 -16h-32q-16 0 -16 16v363q0 48 34 81.5t82 33.5zM124 562q-9 0 -12 5t1 13l58 102q9 18 31 18h31
q9 0 12 -5t-1 -13l-58 -102q-9 -18 -31 -18h-31z" />
    <glyph glyph-name="acircumflex" unicode="&#xe2;" horiz-adv-x="314" 
d="M196 280v99q0 21 -15 36t-36 15q-22 0 -37 -15t-15 -36v-99h103zM145 494q47 0 81 -33.5t34 -81.5v-363q0 -16 -16 -16h-32q-16 0 -16 16v200h-103v-200q0 -16 -16 -16h-32q-16 0 -16 16v363q0 48 34 81.5t82 33.5zM50 562q-9 0 -12 5t1 13l58 102q9 16 28 18q1 1 19 1
t19 -1q19 -2 28 -18l58 -102q4 -8 1 -13t-12 -5h-31q-21 0 -32 18l-31 56l-31 -56q-11 -18 -32 -18h-31z" />
    <glyph glyph-name="adieresis" unicode="&#xe4;" horiz-adv-x="314" 
d="M196 280v99q0 21 -15 36t-36 15q-22 0 -37 -15t-15 -36v-99h103zM145 494q47 0 81 -33.5t34 -81.5v-363q0 -16 -16 -16h-32q-16 0 -16 16v200h-103v-200q0 -16 -16 -16h-32q-16 0 -16 16v363q0 48 34 81.5t82 33.5zM180 561q-16 0 -16 16v66q0 6 4.5 11t11.5 5h31
q7 0 11.5 -5t4.5 -11v-66q0 -16 -16 -16h-31zM77 561q-16 0 -16 16v66q0 6 4.5 11t11.5 5h32q7 0 11.5 -5t4.5 -11v-66q0 -16 -16 -16h-32z" />
    <glyph glyph-name="ccedilla" unicode="&#xe7;" horiz-adv-x="313" 
d="M212 331q-16 0 -16 16v34q0 21 -15 36t-37 15q-21 0 -36 -15t-15 -36v-266q0 -21 15 -36t36 -15q22 0 37 15t15 36v37q0 16 16 16h32q6 0 11 -4.5t5 -11.5v-37q0 -39 -24 -69.5t-60 -41.5v-50q0 -16 -16 -16h-32q-16 0 -16 16v50q-36 11 -59.5 41.5t-23.5 69.5v266
q0 48 34 81.5t81 33.5q48 0 82 -33.5t34 -81.5v-34q0 -7 -5 -11.5t-11 -4.5h-32z" />
    <glyph glyph-name="egrave" unicode="&#xe8;" horiz-adv-x="250" 
d="M66 580l-58 103q-4 7 -1 12.5t12 5.5h31q21 0 32 -18l58 -103q4 -8 1 -13t-12 -5h-31q-21 0 -32 18zM180 431h-87v-151h87q16 0 16 -16v-32q0 -16 -16 -16h-87v-152h87q16 0 16 -16v-32q0 -16 -16 -16h-119q-13 0 -22.5 9.5t-9.5 22.5v431q0 13 9.5 22.5t22.5 9.5h119
q16 0 16 -16v-32q0 -16 -16 -16z" />
    <glyph glyph-name="eacute" unicode="&#xe9;" horiz-adv-x="269" 
d="M92 562q-9 0 -12 5t1 13l58 102q9 18 31 18h31q9 0 12 -5t-1 -13l-58 -102q-9 -18 -31 -18h-31zM180 431h-87v-151h87q16 0 16 -16v-32q0 -16 -16 -16h-87v-152h87q16 0 16 -16v-32q0 -16 -16 -16h-119q-13 0 -22.5 9.5t-9.5 22.5v431q0 13 9.5 22.5t22.5 9.5h119
q16 0 16 -16v-32q0 -16 -16 -16z" />
    <glyph glyph-name="ecircumflex" unicode="&#xea;" horiz-adv-x="250" 
d="M181 431h-87v-151h87q16 0 16 -16v-32q0 -16 -16 -16h-87v-152h87q16 0 16 -16v-32q0 -16 -16 -16h-119q-13 0 -22.5 9.5t-9.5 22.5v431q0 13 9 22.5t23 9.5h119q16 0 16 -16v-32q0 -16 -16 -16zM19 562q-9 0 -12 5t1 13l58 102q9 16 28 18q1 1 19 1t19 -1q19 -2 28 -18
l58 -102q4 -8 1 -13t-12 -5h-31q-21 0 -32 18l-31 56l-31 -56q-11 -18 -32 -18h-31z" />
    <glyph glyph-name="edieresis" unicode="&#xeb;" horiz-adv-x="250" 
d="M180 431h-87v-151h87q16 0 16 -16v-32q0 -16 -16 -16h-87v-152h87q16 0 16 -16v-32q0 -16 -16 -16h-119q-13 0 -22.5 9.5t-9.5 22.5v431q0 13 9.5 22.5t22.5 9.5h119q16 0 16 -16v-32q0 -16 -16 -16zM148 561q-16 0 -16 16v66q0 6 4.5 11t11.5 5h31q7 0 11.5 -5t4.5 -11
v-66q0 -16 -16 -16h-31zM45 561q-16 0 -16 16v66q0 6 4.5 11t11.5 5h32q7 0 11.5 -5t4.5 -11v-66q0 -16 -16 -16h-32z" />
    <glyph glyph-name="igrave" unicode="&#xec;" horiz-adv-x="147" 
d="M16 580l-58 103q-4 7 -1 12.5t12 5.5h31q21 0 32 -18l58 -103q4 -8 1 -13t-12 -5h-31q-21 0 -32 18zM95 479v-463q0 -16 -16 -16h-32q-16 0 -16 16v463q0 16 16 16h32q6 0 11 -4.5t5 -11.5z" />
    <glyph glyph-name="iacute" unicode="&#xed;" horiz-adv-x="147" 
d="M41 562q-9 0 -12 5t1 13l58 102q9 18 31 18h31q9 0 12 -5t-1 -13l-58 -102q-9 -18 -31 -18h-31zM94 479v-463q0 -16 -16 -16h-32q-16 0 -16 16v463q0 16 16 16h32q6 0 11 -4.5t5 -11.5z" />
    <glyph glyph-name="icircumflex" unicode="&#xee;" horiz-adv-x="147" 
d="M94 479v-463q0 -16 -16 -16h-32q-16 0 -16 16v463q0 16 16 16h32q6 0 11 -4.5t5 -11.5zM-33 562q-9 0 -12 5t1 13l58 102q9 16 28 18q1 1 19 1t19 -1q19 -2 28 -18l58 -102q4 -8 1 -13t-12 -5h-31q-21 0 -32 18l-31 56l-31 -56q-11 -18 -32 -18h-31z" />
    <glyph glyph-name="idieresis" unicode="&#xef;" horiz-adv-x="147" 
d="M93 479v-463q0 -16 -16 -16h-32q-16 0 -16 16v463q0 16 16 16h32q6 0 11 -4.5t5 -11.5zM97 561q-16 0 -16 16v66q0 6 4.5 11t11.5 5h31q7 0 11.5 -5t4.5 -11v-66q0 -16 -16 -16h-31zM-6 561q-16 0 -16 16v66q0 6 4.5 11t11.5 5h32q7 0 11.5 -5t4.5 -11v-66q0 -16 -16 -16
h-32z" />
    <glyph glyph-name="ntilde" unicode="&#xf1;" horiz-adv-x="313" 
d="M77 561q-16 0 -16 16v32q0 16 16 16h135q16 0 16 -16v-32q0 -16 -16 -16h-135zM145 495q47 0 81 -34t34 -81v-364q0 -6 -4.5 -11t-11.5 -5h-32q-7 0 -11.5 5t-4.5 11v364q0 21 -15 36t-36 15q-22 0 -37 -15t-15 -36v-364q0 -6 -4.5 -11t-11.5 -5h-32q-7 0 -11.5 5
t-4.5 11v364q0 47 34 81t82 34z" />
    <glyph glyph-name="ograve" unicode="&#xf2;" horiz-adv-x="314" 
d="M98 580l-58 103q-4 7 -1 12.5t12 5.5h31q21 0 32 -18l58 -103q4 -8 1 -13t-12 -5h-31q-21 0 -32 18zM196 116v264q0 21 -15 36t-36 15q-22 0 -37 -15t-15 -36v-264q0 -22 15 -37t37 -15q21 0 36 15t15 37zM145 495q47 0 81 -34t34 -81v-264q0 -48 -34 -82t-81 -34
q-48 0 -82 34t-34 82v264q0 47 34 81t82 34z" />
    <glyph glyph-name="oacute" unicode="&#xf3;" horiz-adv-x="314" 
d="M128 562q-9 0 -12 5t1 13l58 102q9 18 31 18h31q9 0 12 -5t-1 -13l-58 -102q-9 -18 -31 -18h-31zM196 116v264q0 21 -15 36t-36 15q-22 0 -37 -15t-15 -36v-264q0 -22 15 -37t37 -15q21 0 36 15t15 37zM145 495q47 0 81 -34t34 -81v-264q0 -48 -34 -82t-81 -34
q-48 0 -82 34t-34 82v264q0 47 34 81t82 34z" />
    <glyph glyph-name="ocircumflex" unicode="&#xf4;" horiz-adv-x="313" 
d="M196 116v264q0 21 -15 36t-36 15q-22 0 -37 -15t-15 -36v-264q0 -22 15 -37t37 -15q21 0 36 15t15 37zM145 495q47 0 81 -34t34 -81v-264q0 -48 -34 -82t-81 -34q-48 0 -82 34t-34 82v264q0 47 34 81t82 34zM50 562q-9 0 -12 5t1 13l58 102q9 16 28 18q1 1 19 1t19 -1
q19 -2 28 -18l58 -102q4 -8 1 -13t-12 -5h-31q-21 0 -32 18l-31 56l-31 -56q-11 -18 -32 -18h-31z" />
    <glyph glyph-name="odieresis" unicode="&#xf6;" horiz-adv-x="314" 
d="M196 116v264q0 21 -15 36t-36 15q-22 0 -37 -15t-15 -36v-264q0 -22 15 -37t37 -15q21 0 36 15t15 37zM145 495q47 0 81 -34t34 -81v-264q0 -48 -34 -82t-81 -34q-48 0 -82 34t-34 82v264q0 47 34 81t82 34zM180 561q-16 0 -16 16v66q0 6 4.5 11t11.5 5h31q7 0 11.5 -5
t4.5 -11v-66q0 -16 -16 -16h-31zM77 561q-16 0 -16 16v66q0 6 4.5 11t11.5 5h32q7 0 11.5 -5t4.5 -11v-66q0 -16 -16 -16h-32z" />
    <glyph glyph-name="ugrave" unicode="&#xf9;" horiz-adv-x="314" 
d="M98 580l-58 103q-4 7 -1 12.5t12 5.5h31q21 0 32 -18l58 -103q4 -8 1 -13t-12 -5h-31q-21 0 -32 18zM244 495q16 0 16 -16v-363q0 -48 -34 -82t-81 -34q-48 0 -82 34t-34 82v363q0 7 5 11.5t11 4.5h32q16 0 16 -16v-363q0 -22 15 -37t37 -15q21 0 36 15t15 37v363
q0 16 16 16h32z" />
    <glyph glyph-name="uacute" unicode="&#xfa;" horiz-adv-x="314" 
d="M123 562q-9 0 -12 5t1 13l58 102q9 18 31 18h31q9 0 12 -5t-1 -13l-58 -102q-9 -18 -31 -18h-31zM244 495q16 0 16 -16v-363q0 -48 -34 -82t-81 -34q-48 0 -82 34t-34 82v363q0 7 5 11.5t11 4.5h32q16 0 16 -16v-363q0 -22 15 -37t37 -15q21 0 36 15t15 37v363
q0 16 16 16h32z" />
    <glyph glyph-name="ucircumflex" unicode="&#xfb;" horiz-adv-x="314" 
d="M244 495q16 0 16 -16v-363q0 -48 -34 -82t-81 -34q-48 0 -82 34t-34 82v363q0 7 5 11.5t11 4.5h32q16 0 16 -16v-363q0 -22 15 -37t37 -15q21 0 36 15t15 37v363q0 16 16 16h32zM50 562q-9 0 -12 5t1 13l58 102q9 16 28 18q1 1 19 1t19 -1q19 -2 28 -18l58 -102
q4 -8 1 -13t-12 -5h-31q-21 0 -32 18l-31 56l-31 -56q-11 -18 -32 -18h-31z" />
    <glyph glyph-name="udieresis" unicode="&#xfc;" horiz-adv-x="314" 
d="M244 495q16 0 16 -16v-363q0 -48 -34 -82t-81 -34q-48 0 -82 34t-34 82v363q0 7 5 11.5t11 4.5h32q16 0 16 -16v-363q0 -22 15 -37t37 -15q21 0 36 15t15 37v363q0 16 16 16h32zM180 561q-16 0 -16 16v66q0 6 4.5 11t11.5 5h31q7 0 11.5 -5t4.5 -11v-66q0 -16 -16 -16
h-31zM77 561q-16 0 -16 16v66q0 6 4.5 11t11.5 5h32q7 0 11.5 -5t4.5 -11v-66q0 -16 -16 -16h-32z" />
    <glyph glyph-name="Amacron" unicode="&#x100;" 
 />
    <glyph glyph-name="Abreve" unicode="&#x102;" 
 />
    <glyph glyph-name="Aogonek" unicode="&#x104;" 
 />
    <glyph glyph-name="Cacute" unicode="&#x106;" 
 />
    <glyph glyph-name="Ccircumflex" unicode="&#x108;" 
 />
    <glyph glyph-name="Cdotaccent" unicode="&#x10a;" 
 />
    <glyph glyph-name="Ccaron" unicode="&#x10c;" 
 />
    <glyph glyph-name="Dcaron" unicode="&#x10e;" 
 />
    <glyph glyph-name="Dcroat" unicode="&#x110;" 
 />
    <glyph glyph-name="Emacron" unicode="&#x112;" 
 />
    <glyph glyph-name="Ebreve" unicode="&#x114;" 
 />
    <glyph glyph-name="Edotaccent" unicode="&#x116;" 
 />
    <glyph glyph-name="Eogonek" unicode="&#x118;" 
 />
    <glyph glyph-name="Ecaron" unicode="&#x11a;" horiz-adv-x="250" 
 />
    <glyph glyph-name="Gcircumflex" unicode="&#x11c;" 
 />
    <glyph glyph-name="Gbreve" unicode="&#x11e;" 
 />
    <glyph glyph-name="Gdotaccent" unicode="&#x120;" 
 />
    <glyph glyph-name="Gcommaaccent" unicode="&#x122;" 
 />
    <glyph glyph-name="Hcircumflex" unicode="&#x124;" 
 />
    <glyph glyph-name="Hbar" unicode="&#x126;" 
 />
    <glyph glyph-name="Itilde" unicode="&#x128;" 
 />
    <glyph glyph-name="Ibreve" unicode="&#x12c;" 
 />
    <glyph glyph-name="Iogonek" unicode="&#x12e;" 
 />
    <glyph glyph-name="Idotaccent" unicode="&#x130;" 
 />
    <glyph glyph-name="IJ" unicode="&#x132;" 
 />
    <glyph glyph-name="Jcircumflex" unicode="&#x134;" 
 />
    <glyph glyph-name="Kcommaaccent" unicode="&#x136;" 
 />
    <glyph glyph-name="Lacute" unicode="&#x139;" 
 />
    <glyph glyph-name="Lcommaaccent" unicode="&#x13b;" 
 />
    <glyph glyph-name="Lcaron" unicode="&#x13d;" 
 />
    <glyph glyph-name="Ldot" unicode="&#x13f;" 
 />
    <glyph glyph-name="Lslash" unicode="&#x141;" 
 />
    <glyph glyph-name="Nacute" unicode="&#x143;" 
 />
    <glyph glyph-name="Ncommaaccent" unicode="&#x145;" 
 />
    <glyph glyph-name="Ncaron" unicode="&#x147;" 
 />
    <glyph glyph-name="Omacron" unicode="&#x14c;" 
 />
    <glyph glyph-name="Obreve" unicode="&#x14e;" 
 />
    <glyph glyph-name="Ohungarumlaut" unicode="&#x150;" 
 />
    <glyph glyph-name="OE" unicode="&#x152;" horiz-adv-x="1666" 
 />
    <glyph glyph-name="Racute" unicode="&#x154;" 
 />
    <glyph glyph-name="Rcommaaccent" unicode="&#x156;" 
 />
    <glyph glyph-name="Rcaron" unicode="&#x158;" 
 />
    <glyph glyph-name="Sacute" unicode="&#x15a;" 
 />
    <glyph glyph-name="Scircumflex" unicode="&#x15c;" 
 />
    <glyph glyph-name="Scedilla" unicode="&#x15e;" 
 />
    <glyph glyph-name="Scaron" unicode="&#x160;" 
 />
    <glyph glyph-name="Tcommaaccent" unicode="&#x162;" 
 />
    <glyph glyph-name="Tcaron" unicode="&#x164;" 
 />
    <glyph glyph-name="Tbar" unicode="&#x166;" 
 />
    <glyph glyph-name="Utilde" unicode="&#x168;" 
 />
    <glyph glyph-name="Umacron" unicode="&#x16a;" 
 />
    <glyph glyph-name="Ubreve" unicode="&#x16c;" 
 />
    <glyph glyph-name="Uring" unicode="&#x16e;" 
 />
    <glyph glyph-name="Uhungarumlaut" unicode="&#x170;" 
 />
    <glyph glyph-name="Uogonek" unicode="&#x172;" 
 />
    <glyph glyph-name="Wcircumflex" unicode="&#x174;" 
 />
    <glyph glyph-name="Ycircumflex" unicode="&#x176;" 
 />
    <glyph glyph-name="Ydieresis" unicode="&#x178;" 
 />
    <glyph glyph-name="Zacute" unicode="&#x179;" 
 />
    <glyph glyph-name="Zdotaccent" unicode="&#x17b;" 
 />
    <glyph glyph-name="Zcaron" unicode="&#x17d;" 
 />
    <glyph glyph-name="AEacute" unicode="&#x1fc;" 
 />
    <glyph glyph-name="Oslashacute" unicode="&#x1fe;" 
 />
    <glyph glyph-name="Scommaaccent" unicode="&#x218;" 
 />
    <glyph glyph-name="circumflex" unicode="&#x2c6;" 
 />
    <glyph glyph-name="caron" unicode="&#x2c7;" 
 />
    <glyph glyph-name="breve" unicode="&#x2d8;" 
 />
    <glyph glyph-name="dotaccent" unicode="&#x2d9;" 
 />
    <glyph glyph-name="ring" unicode="&#x2da;" 
 />
    <glyph glyph-name="ogonek" unicode="&#x2db;" 
 />
    <glyph glyph-name="tilde" unicode="&#x2dc;" 
 />
    <glyph glyph-name="hungarumlaut" unicode="&#x2dd;" horiz-adv-x="440" 
 />
    <glyph glyph-name="Wgrave" unicode="&#x1e80;" 
 />
    <glyph glyph-name="Wacute" unicode="&#x1e82;" 
 />
    <glyph glyph-name="Wdieresis" unicode="&#x1e84;" 
 />
    <glyph glyph-name="Ygrave" unicode="&#x1ef2;" 
 />
    <glyph glyph-name="euro" unicode="&#x20ac;" horiz-adv-x="379" 
d="M276 329q-6 0 -10.5 5t-4.5 11v34q0 22 -15 37t-37 15q-21 0 -36 -15t-15 -37v-36h50q7 0 11.5 -5t4.5 -11v-32q0 -16 -16 -16h-50v-64h50q16 0 16 -16v-32q0 -16 -16 -16h-50v-36q0 -22 15 -37t36 -15q22 0 37 15t15 37v37q0 7 4.5 11.5t10.5 4.5h32q16 0 16 -16v-37
q0 -48 -33.5 -81.5t-81.5 -33.5q-47 0 -80.5 33.5t-33.5 81.5v36h-50q-16 0 -16 16v32q0 16 16 16h50v64h-50q-16 0 -16 16v32q0 6 4.5 11t11.5 5h50v36q0 48 33.5 81.5t80.5 33.5q48 0 81.5 -33.5t33.5 -81.5v-34q0 -6 -4.5 -11t-11.5 -5h-32z" />
    <glyph glyph-name="CR" horiz-adv-x="144" 
 />
    <glyph glyph-name="Imacron" 
 />
    <glyph glyph-name="K.alt" 
 />
    <glyph glyph-name="Kcommaaccent.alt" 
 />
    <glyph glyph-name="Q.alt" 
 />
    <glyph glyph-name="R.alt" 
 />
    <glyph glyph-name="Racute.alt" 
 />
    <glyph glyph-name="Rcaron.alt" 
 />
    <glyph glyph-name="Rcommaaccent.alt" 
 />
    <glyph glyph-name="T_h" horiz-adv-x="1146" 
 />
    <glyph glyph-name="T_h.caron" 
 />
    <glyph glyph-name="T_h.commaaccent" 
 />
    <glyph glyph-name="Asmall" horiz-adv-x="0" 
 />
    <glyph glyph-name="Aacutesmall" horiz-adv-x="0" 
 />
    <glyph glyph-name="Abreve.small" 
 />
    <glyph glyph-name="Acircumflexsmall" horiz-adv-x="0" 
 />
    <glyph glyph-name="Adieresissmall" horiz-adv-x="0" 
 />
    <glyph glyph-name="Agravesmall" horiz-adv-x="0" 
 />
    <glyph glyph-name="Amacron.small" 
 />
    <glyph glyph-name="Aogonek.small" 
 />
    <glyph glyph-name="Aringsmall" horiz-adv-x="0" 
 />
    <glyph glyph-name="Atildesmall" horiz-adv-x="0" 
 />
    <glyph glyph-name="AEsmall" horiz-adv-x="0" 
 />
    <glyph glyph-name="AEacute.small" 
 />
    <glyph glyph-name="Bsmall" horiz-adv-x="0" 
 />
    <glyph glyph-name="Csmall" horiz-adv-x="0" 
 />
    <glyph glyph-name="Cacute.small" 
 />
    <glyph glyph-name="Ccaron.small" 
 />
    <glyph glyph-name="Ccedillasmall" horiz-adv-x="0" 
 />
    <glyph glyph-name="Ccircumflex.small" 
 />
    <glyph glyph-name="Cdotaccent.small" 
 />
    <glyph glyph-name="Dsmall" horiz-adv-x="0" 
 />
    <glyph glyph-name="Dcaron.small" 
 />
    <glyph glyph-name="Dcroat.small" 
 />
    <glyph glyph-name="Esmall" horiz-adv-x="0" 
 />
    <glyph glyph-name="Eacutesmall" horiz-adv-x="0" 
 />
    <glyph glyph-name="Ebreve.small" 
 />
    <glyph glyph-name="Ecaron.small" 
 />
    <glyph glyph-name="Ecircumflexsmall" horiz-adv-x="0" 
 />
    <glyph glyph-name="Edieresissmall" horiz-adv-x="0" 
 />
    <glyph glyph-name="Edotaccent.small" 
 />
    <glyph glyph-name="Egravesmall" horiz-adv-x="0" 
 />
    <glyph glyph-name="Emacron.small" 
 />
    <glyph glyph-name="Eogonek.small" 
 />
    <glyph glyph-name="Fsmall" horiz-adv-x="0" 
 />
    <glyph glyph-name="Gsmall" horiz-adv-x="0" 
 />
    <glyph glyph-name="Gbreve.small" 
 />
    <glyph glyph-name="Gcircumflex.small" 
 />
    <glyph glyph-name="Gcommaaccent.small" 
 />
    <glyph glyph-name="Gdotaccent.small" 
 />
    <glyph glyph-name="Hsmall" horiz-adv-x="0" 
 />
    <glyph glyph-name="Hbar.small" 
 />
    <glyph glyph-name="Hcircumflex.small" 
 />
    <glyph glyph-name="Ismall" horiz-adv-x="0" 
 />
    <glyph glyph-name="Iacutesmall" horiz-adv-x="0" 
 />
    <glyph glyph-name="Ibreve.small" 
 />
    <glyph glyph-name="Icircumflexsmall" horiz-adv-x="0" 
 />
    <glyph glyph-name="Idieresissmall" horiz-adv-x="0" 
 />
    <glyph glyph-name="Idotaccent.small" 
 />
    <glyph glyph-name="Igravesmall" horiz-adv-x="0" 
 />
    <glyph glyph-name="Imacron.small" 
 />
    <glyph glyph-name="Iogonek.small" 
 />
    <glyph glyph-name="Itilde.small" 
 />
    <glyph glyph-name="IJ.small" 
 />
    <glyph glyph-name="Jsmall" horiz-adv-x="0" 
 />
    <glyph glyph-name="Jcircumflex.small" 
 />
    <glyph glyph-name="Ksmall" horiz-adv-x="0" 
 />
    <glyph glyph-name="Kcommaaccent.small" 
 />
    <glyph glyph-name="Ksmall.alt" horiz-adv-x="0" 
 />
    <glyph glyph-name="Kcommaaccent.smallalt" 
 />
    <glyph glyph-name="Lsmall" horiz-adv-x="0" 
 />
    <glyph glyph-name="Lacute.small" 
 />
    <glyph glyph-name="Lcaron.small" 
 />
    <glyph glyph-name="Lcommaaccent.small" 
 />
    <glyph glyph-name="Ldot.small" 
 />
    <glyph glyph-name="Lslashsmall" horiz-adv-x="0" 
 />
    <glyph glyph-name="cyrbreve" horiz-adv-x="0" 
 />
    <glyph glyph-name="commaaccent" horiz-adv-x="144" 
 />
    <glyph glyph-name="undercommaaccent" horiz-adv-x="0" 
 />
    <glyph glyph-name="dieresisacute" horiz-adv-x="0" 
 />
    <glyph glyph-name="dieresisgrave" horiz-adv-x="0" 
 />
    <glyph glyph-name="dblgrave" horiz-adv-x="0" 
 />
    <glyph glyph-name="cyrflex" horiz-adv-x="0" 
 />
    <glyph glyph-name="Acute" horiz-adv-x="0" 
 />
    <glyph glyph-name="Breve" horiz-adv-x="0" 
 />
    <glyph glyph-name="cyrBreve" horiz-adv-x="0" 
 />
    <glyph glyph-name="Caron" horiz-adv-x="0" 
 />
    <glyph glyph-name="Cedilla" horiz-adv-x="0" 
 />
    <glyph glyph-name="Circumflex" horiz-adv-x="0" 
 />
    <glyph glyph-name="commaaccent.cap" horiz-adv-x="144" 
 />
    <glyph glyph-name="Dieresis" horiz-adv-x="0" 
 />
    <glyph glyph-name="DieresisAcute" horiz-adv-x="0" 
 />
    <glyph glyph-name="DieresisGrave" horiz-adv-x="0" 
 />
    <glyph glyph-name="Dotaccent" horiz-adv-x="0" 
 />
    <glyph glyph-name="Hungarumlaut" horiz-adv-x="0" 
 />
    <glyph glyph-name="Grave" horiz-adv-x="0" 
 />
    <glyph glyph-name="dblGrave" horiz-adv-x="0" 
 />
    <glyph glyph-name="cyrFlex" horiz-adv-x="0" 
 />
    <glyph glyph-name="Macron" horiz-adv-x="0" 
 />
    <glyph glyph-name="Ogonek" horiz-adv-x="0" 
 />
    <glyph glyph-name="Ring" horiz-adv-x="0" 
 />
    <glyph glyph-name="Tilde" horiz-adv-x="0" 
 />
    <glyph glyph-name="Acutesmall" horiz-adv-x="0" 
 />
    <glyph glyph-name="Brevesmall" horiz-adv-x="0" 
 />
    <glyph glyph-name="Caronsmall" horiz-adv-x="0" 
 />
    <glyph glyph-name="Cedillasmall" horiz-adv-x="0" 
 />
    <glyph glyph-name="Circumflexsmall" horiz-adv-x="0" 
 />
    <glyph glyph-name="commaaccent.small" horiz-adv-x="144" 
 />
    <glyph glyph-name="Dieresissmall" horiz-adv-x="0" 
 />
    <glyph glyph-name="DieresisAcute.small" horiz-adv-x="0" 
 />
    <glyph glyph-name="DieresisGrave.small" horiz-adv-x="0" 
 />
    <glyph glyph-name="Dotaccentsmall" horiz-adv-x="0" 
 />
    <glyph glyph-name="Hungarumlautsmall" horiz-adv-x="0" 
 />
    <glyph glyph-name="Gravesmall" horiz-adv-x="0" 
 />
    <glyph glyph-name="dblGrave.small" horiz-adv-x="0" 
 />
    <glyph glyph-name="Macronsmall" horiz-adv-x="0" 
 />
    <glyph glyph-name="Ogoneksmall" horiz-adv-x="0" 
 />
    <glyph glyph-name="Ringsmall" horiz-adv-x="0" 
 />
    <glyph glyph-name="Tildesmall" horiz-adv-x="0" 
 />
    </font>
</defs>
</svg>
